Two part February mix is uploaded... techy prog on both discs but a little more peaktime with the live disc. Hope you all enjoy, and lemme know if you want CD versions mailed

Mixed on Xone92/CDJ1000mkii/KP3

Disc 1 PROMO (Right Click and Save)

FILE "c:\{RichCurtis} Feb 08 Rant Promo.mp3" MP3
TRACK 01 AUDIO
TITLE "AB Project - Misconceptions (Soliquid Walking On Clouds Remix)"
INDEX 01 00:00:00
TRACK 02 AUDIO
TITLE "Opus Ink - Darkroombbot (Sasse Elkatornix Remix)"
INDEX 01 06:54:52
TRACK 03 AUDIO
TITLE "Pryda - Odyssey"
INDEX 01 13:47:41
TRACK 04 AUDIO
TITLE "Justus Kohncke - Advance (Prins Thomas Diskotek Mix) "
INDEX 01 15:37:02
TRACK 05 AUDIO
TITLE "Motorcitysoul - Space Katzle (Jerome Sydenham Remix)"
INDEX 01 23:16:52
TRACK 06 AUDIO
TITLE "Karim Haas - Inside Me (Abel the Kid & Raul Ortiz Remix)"
INDEX 01 27:44:33
TRACK 07 AUDIO
TITLE "Kris Menace - Steamroller"
INDEX 01 31:02:57
TRACK 08 AUDIO
TITLE "Sebastian Ingrosso & Laidback Luke - Chaa Chaa"
INDEX 01 33:46:41
TRACK 09 AUDIO
TITLE "Tocadisco - Morumbi"
INDEX 01 40:07:37
TRACK 10 AUDIO
TITLE "Chris Micali vs The Luxembourg Brothers - Body Yo (Dub Mix)"
INDEX 01 43:39:56
TRACK 11 AUDIO
TITLE "Underworld - Beautiful Burnout (Mark Knight Remix)"
INDEX 01 47:41:48
TRACK 12 AUDIO
TITLE "Haveck - Break Other (Bruno Renno Remix)"
INDEX 01 54:14:59
TRACK 13 AUDIO
TITLE "Sasha - Mongoose"
INDEX 01 57:46:37
TRACK 14 AUDIO
TITLE "Gutterstylz & Rolasoul - Lost (Dub Mix)"
INDEX 01 64:57:27
TRACK 15 AUDIO
TITLE "Avilo - Reach"
INDEX 01 70:15:02
TRACK 16 AUDIO
TITLE "Claude VonStroke - The Whistler (Audiofly Remix)"
INDEX 01 74:31:72


Disc 2 LIVE (Right Click and Save)

FILE "c:\{RichCurtis} Feb 08 Rant Live.mp3" MP3
TRACK 01 AUDIO
TITLE "Olav Basoski - Geiger"
INDEX 01 00:00:00
TRACK 02 AUDIO
TITLE "LeRon & Yves Eaux - Welcome to the Real World"
INDEX 01 02:28:39
TRACK 03 AUDIO
TITLE "Unknown - Unknown"
INDEX 01 04:29:69
TRACK 04 AUDIO
TITLE "Oxia - Lost Memory"
INDEX 01 11:04:42
TRACK 05 AUDIO
TITLE "Bastards of Funk - Analog Fetishes"
INDEX 01 14:21:64
TRACK 06 AUDIO
TITLE "Audionova & Electrobios - Pacific"
INDEX 01 18:24:55
TRACK 07 AUDIO
TITLE "Sebastian Ingrosso & Laidbake Luke - Chaa Chaa"
INDEX 01 22:57:47
TRACK 08 AUDIO
TITLE "Bs As Deep - The Last Angel (StereoK Remix)"
INDEX 01 28:46:53
TRACK 09 AUDIO
TITLE "Belocca - What You Do (Snake Sedrick Remix)"
INDEX 01 34:05:31
TRACK 10 AUDIO
TITLE "Deadset - Tick Tock (Jesse Rose Remix)"
INDEX 01 39:01:32
TRACK 11 AUDIO
TITLE "In-n-Out - Barcelona-Ibiza"
INDEX 01 42:49:10
TRACK 12 AUDIO
TITLE "King Unique - Yohkoh (KU Dub)"
INDEX 01 46:52:03
TRACK 13 AUDIO
TITLE "Underworld - Beautiful Burnout (Mark Knight Remix)"
INDEX 01 51:23:59
TRACK 14 AUDIO
TITLE "Faithless - A Kind of Peace (LO5 Remix)"
INDEX 01 54:24:41
TRACK 15 AUDIO
TITLE "Supadelics - Puppet Strings (Gorge & Greg Silver Remix)"
INDEX 01 58:10:34
TRACK 16 AUDIO
TITLE "Oliver Moldan - Rise & Fall (RIP Christian Remix)"
INDEX 01 60:10:69
TRACK 17 AUDIO
TITLE "MOS - Turquesa"
INDEX 01 64:11:60
TRACK 18 AUDIO
TITLE "Furry Nipples - Viggo (Martin H Remix)"
INDEX 01 69:50:42
TRACK 19 AUDIO
TITLE "Tarmo Vanna - Topaz (Federico Epis Remix)"
INDEX 01 76:29:60
Rich Curtis' website & Facebook

Latitude End EP (incl Andre Sobota, Noraj Cue & Verve Rmxs) - Mar 24
Golden Wings Music "Unique" EP (incl Flipped) - May 2

Playing prog/tech LIVE on Proton Radio, 1st Tues of Month @10pm US EST